2013Zone For Latest Downloads

 
     
 
Legal Downloads » Torrents » Madagascar.3.Europes.Most.Wanted.2012.CAM.READNFO.XviD-INSPiRAL
Menu
Home Applications
Games Movies
Music TV Shows
Torrents Graphics

Sitemap

RSS
 
Advanced Search
Last News
Site Info
Top Contributors:
  1    supper88 32766
  2    admin 32747
  3    Whisky 10080
  4    Shark_ 8911
  5    creativelivenew 8706
  6    whathesupa 2799
  7    candymypost 840
  8    hvnteam 629
  9    vuong87 3


Articles:
  This Hour: 0
  Today: 0
  This Month: 16
  All Time: 515460


Torrents:
  Today: 0
  Yesterday: 0
  All Time: 156710


Membership:
  Registered Today :0
  This Hour:0
  This Month:0
  Total:14
  Banned:1

{online}
{inform_torrent}
Friend:
Full Download Scripts
Torrent Download
Trend
Trend

Search In Site

Torrents : Madagascar.3.Europes.Most.Wanted.2012.CAM.READNFO.XviD-INSPiRAL
 

Torrent name:Madagascar.3.Europes.Most.Wanted.2012.CAM.READNFO.XviD-INSPiRAL

Seeds:27

Leechers:173

Health: 

Total size:1.37 GB

Torrent added:2012-06-11 04:43:29

Info hash:7ED417443F336BB23D571F9F655D113775CFC363


Description:
 

Poster: 
http://bigfanboy.com/wp/wp-content/uploads/2012/06/Madagascar-3-Europes-Most-Wanted-Poster-004.jpg


Genre	: Animation, Adventure, Comedy
Actors	: Ben Stiller, Jada Pinkett Smith, Chris Rock

Plot	:
Alex, Marty, Gloria and Melman are still fighting to get home to their beloved Big Apple. Their journey takes them through Europe where they find the perfect cover: a traveling circus, which they reinvent - Madagascar style.


Video
ID: 0
Format: MPEG-4 Visual
Format profile: Advanced [email protected]
Format settings, BVOP: 2
Format settings, QPel: No
Format settings, GMC: No warppoints
Format settings, Matrix: Default (H.263)
Muxing mode: Packed bitstream
Codec ID: XVID
Codec ID/Hint: XviD
Duration: 1h 21mn
Bit rate: 2 279 Kbps
Width: 720 pixels
Height: 400 pixels
Display aspect ratio: 16:9
Frame rate: 25.000 fps
Color space: YUV
Chroma subsampling: 4:2:0
Bit depth: 8 bits
Scan type: Progressive
Compression mode: Lossy
Bits/(Pixel*Frame): 0.317
Stream size: 1.29 GiB (94%)
Writing library: XviD 1.2.1 (UTC 2008-12-04)

Audio
ID: 1
Format: MPEG Audio
Format version: Version 1
Format profile: Layer 3
Mode: Joint stereo
Mode extension: MS Stereo
Codec ID: 55
Codec ID/Hint: MP3
Duration: 1h 21mn
Bit rate mode: Constant
Bit rate: 128 Kbps
Channel(s): 2 channels
Sampling rate: 44.1 KHz
Compression mode: Lossy
Stream size: 74.3 MiB (5%)
Alignment: Split accross interleaves
Interleave, duration: 40 ms (1.00 video frame)
Writing library: LAME3.98r


SCREENS: 
http://www.pixentral.com/pics/1dlfxFGarwsqembmEj41SitmkQJbD0.jpg

Download utorrent client from http://www.utorrent.com/ before downloading from below magnet link


Madagascar.3.Europes.Most.Wanted.2012.CAM.READNFO.XviD-INSPiRAL Fast Download



 
 
 
Dear visitor, you went to the site as an unregistered user. We encourage you to register or enter the site under your name.
 
   
 
 (Votes #: 0)